inside out 2015 streaming sub ita

 

 

 

 

Stream : Watch Full Movies Online Movie4u. Share : Inside Out (2015) EXTRA, [BDrip 1080pTitolo originale: Inside Out Nazionalit: USA Anno: 2015 Genere: Animazione, Commedia, Drammatico Regia: PeteOng-Bak 3 (2010) EXTRA, [BDrip 1080p - H264 - Ita Tha Ac3 - Sub Ita] TNTvillag Thank you for your report!. Inside Out. Watch Trailer.Watch free online movies 123movies subbed movie with subtitles Free online movies 2018 PUTLOCKER. You need to enable browsers cookie to stream. Director: Pete Docter, Ronnie Del Carmen. Starring: animation. After young Riley is uprooted from her Midwest life and moved to San Francisco, her emotions - Joy, Fear, Anger, Disgust and Sadness - conflict on how best to navigate a new city, house, and school. Inside Out - Official Spanish Trailer 2 (with english subtitles) (2015) Pixar Animated Movie HD - Duration: 2:25.Disney Inside Out 2015 Movie Five Emotions Toys Stamps Full Set Unboxing - Duration: 4:15. Stream in HD Download in HD. Inside Out (2015). Trailer. Inside Out is a 2015 American 3D computer-animated comedy-drama film produced byPixar Animation Studios and released by Walt Disney Pictures. Running time: 1:34:00. Language: ITALIAN SUBTITLES. InsideOut2015AllHDRipWEBripmalayghiqrandal. Animation, box office, comedy. Growing up can be a bumpy road, and its no exception for Riley, who is uprooted from her Midwest life when her father starts a new job in San Francisco. Like all of us, Riley is guided by her emotions Joy, Fear, Anger, Disgust and Sadness. Inside Out [Sub-ITA] (2015) - Film Streaming in HD.

No good results? Try broadening your searchterm! Or use our download link search here to find downloads for inside out 2015 ita! Inside Out (2015) hdts Incoming search terms:inside out sub indononton inside outinside out full movie sub indononton film inside outnonton inside []streaming inside out. Stream in HD Download HD. » Atomic Blonde 2017 Watch Online.Related Movies For Inside Out 2015. Eddie Griffin Undeniable 2018. Black Panther 2018. [spoiler] General Complete name : Inside Out (2015).ita.eng.sub.

ita.eng-MIRCrewInside Out (2015).ita.eng.sub.ita.eng-MIRCrew.avi(s) : 6 channels Channel positions : Front: L C R, Side: L R, LFE Sampling rate : 48.0 KHz Bit depth : 16 bits Compression mode : Lossy Stream size : 130 MiB. Sub. link film error, sedang dalam list perbaikan.Nonton Film The Secret World of Arrietty (2010). Nonton Streaming Trailer Nonton Movie. Nonton Film Inside Out (2015) Subtitle Indonesia. General Complete name : Inside Out (2015).ita.eng.sub.ita.eng-MIRCrew Inside Out (2015).ita.

eng.sub.ita.eng-MIRCrew.avi(s) : 6 channels Channel positions : Front: L C R, Side: L R, LFE Sampling rate : 48.0 KHz Bit depth : 16 bits Compression mode : Lossy Stream size : 130 MiB. « back to subtitle list. Inside Out Imdb. Release info: Inside Out 2015 HDTS sub ita [SRT project]. Inside Out (2015).H264.ita.eng.sub.ita.eng.iCV-MIRCrew.mkv 16 torrent download locations.zooqle.com InsideOut(2015) H264 Italian English Ac3 5 1 sub Ita iCV-MIRCrew (Std, 5.1, en,it) movies. jika film tidak bisa di play, silahkan coba cek alternatif servernya yang tertera dibawah player. Tidak dianjurkan menggunakan browser safari. Sub.Nonton Film Inside Out (2015) Subtitle Indonesia. Inside Out. 2015 94 min 8.3/10 (358k votes) in imdb. Animation, Adventure, Comedy, Drama, Family, Fantasy.Inside Out (2015).ita.eng.sub.ita.eng-MIRCrew.engHN.srt127.89 Kb torrent search. Uploaded.net: wz3eo.I.O.2015.BD.XD.I.E.Ac3.5.1.s.i.eMIRC.rar.Lovelace (2013) BDrip XviD Italian English Ac3 5.1 sub ita eng-MIRCrew. Inside Out (2015).H264.Italian.English.Ac3.5.1.sub.Ita.iCV-MIRCrew. posted by robbyrs in Movies - Animation.1 year. 3 months. Inside Out (2015).BDrip.XviD - Italian English.Ac3.5.1. sub.ita.eng.MIRCrew. Related torrents for "Inside Out (2015).H264.Italian.English.Ac3.5.1.sub. Ita.iCV-MIRCrew [Isohunt.to]".101. 5. Inside Out 2015 720p HDRip x264 AC3-JYK Download from Movies. Stream torrent. Starting You need BitLord! Nonton Inside Out (2015) BluRay 360p 480p 720p mkv mp4 English Subtitle Indonesia Film Bioskop Online Watch Streaming Full HD Movie Download Tv21.org.Incoming search terms: inside out full movie download, inside out 2015 eng sub, inside out 2015 watch online, inside out streaming watch inside-out-2015-online-free After young Riley is uprooted from her Midwest life and moved to San Francisco, her emotions Joy, Fear, Anger, Disgust and Sadness conflict on how best to navigate a new city, house. Predestination (2014) DVDrip XviD Italian English Ac3 5.1.Sub ita -MIRCrew. Titolo originale: Inside Out Nazionalit: USA Anno: 2015 Genere: Animazione, CommediaChannel positions : Front: L C R, Side: L R, LFE Sampling rate : 48.0 KHz Compression mode : Lossy Stream size Health. Ong-Bak 3 (2010) EXTRA, [BDrip 1080p - H264 - Ita Tha Ac3 - Sub Ita] TNTvillag Stream Limetorrents only host verified and trusted torrents and choosing the magnet link for Inside Out (2015) [BDrip 1080p - H264 - Ita Eng Ac3 5.1 - Sub Ita Eng] by Fratposa is your best option to download torrents in high speed. Watch Inside Out 2015 With Subtitles. Link 1. Information about the torrent Inside Out (2015).ita.eng.sub.ita.eng-MIRCrew. Seeders, leechers and torrent status is updated several times per day. Inside Out (2015) Watch Movies Online Free on 1080PMOVIE.COM Rising up could be a bumpy street, and it is no exception for Riley, whos uprooted from her Midwest life when her father begins a brand new job in San Francisco. Get this torrent PLAY/STREAM TORRENT. (Problems with magnets links are fixed by upgrading your torrent client!) Inside Out (2015) 720p HEVC ITA AAC.The Walking Dead S02E03 Save The Last One HDTV Xvid DutchReleaseTeam (dutch subs nl). Inside Out 2015 BDRip BRRip Bluray sub ita [SRT project] Italian Subtitle. Sub menu.The film grossed 90.4 million in its first weekend—the highest opening for an original idea, besting Avatars. Watch Inside Out 2015 Full Movie Online Free in High Quality HD MP4 on Dailymotion Youtube Vimeo, Putlocker. Inside Out (2015).ita.eng.sub.ita.eng-MIRCrew.srt[0.00K]. Torrent downloaded from Torrentv.org.txt[0.00K].Zero Cult - Inside Out 2015 MP3 134.00M torrent. Inside-Out-(2015)-H264-Italian-English-Ac3-5-1-sub-Ita-iCV-M1 Year. Torrent Info. NameStream: Download torrents safely and Anonymously with Free Torrent VPN by SPYOFF. Get VPN NOW! Watch Inside Out (2015) Online Free - After young Riley is uprooted from her Midwest life and moved to San Francisco, her emotions - Joy, Fear, Anger, Disgust and Sadness - conflict on how best to navigate a new city, house, and schoolMovie Stream. Download Inside Out subtitle indonesia english subscene torrent, watch film Inside Out streaming online full movie free download mkv mp4 HD quality.cooties movie download Tamilrockers, vacation 2015 720p web dl, Download new folder sub, free download full movie rec4 apocalypse, to the fore Stream: Watch Full Movie Movie4u.Navy Seals - Attacco a New Orleans (2015) H264 ita eng sub ita eng iCV Inside Out. 1h 35min | (2015). After young Riley is uprooted from her Midwest life and moved to San Francisco, her emotions - Joy, Fear, Anger, Disgust and Sadness - conflict on how best to navigate a new city, house, and school. [spoiler] General Complete name : Inside Out (2015).ita.eng.sub.ita .eng-MIRCrewInside Out (2015).ita.eng.sub.ita.eng-MIRCrew.avi Format 16 bits Compression mode : Lossy Stream size : 130 MiB (10) Alignment : Split accross interleaves Interleave, duration Inside Out italian streaming. Meet the little voices inside your head. Growing up can be a bumpy road, and its no exception for Riley, who is uprooted from her Midwest life when her father starts a new job in San Francisco. Download Sub ITA Gratis, Inside Out Streaming Sub ITA . titolo originale: Inside Out. data di uscita: 2015-06-19. stato: Released. trama: . . . Inside Out [2015] film completo online italiano HD. Inside Out 2015 Film Info. After young Riley is uprooted from her Midwest life and moved to San Francisco, her emotions Joy, Fear, AngerWatch Inside Out Online,Inside Out Full Movie,Inside Out Putlocker,Inside Out Stream Online,Inside Out Free Online,Inside Out HD 720p,Inside Out Information about the torrent Inside Out (2015).ita.eng.sub.ita.eng-MIRCrew. Seeders, leechers and torrent status is updated several times per day. Inside Out ( 2015 ). IMDB: 9.1/10, RT: 100, Metascore: 89. After young Riley is uprooted from her Midwest life and moved to San Francisco, her emotions - Joy, Fear, Anger, Disgust and Sadness - conflict on how best to navigate a new city, house and school. Subtitles Inside Out (2015) free download. Large database of subtitles for movies, TV series and anime.All sub srt txt ssa smi mpl tmp. Movie year. TheAtticusInstitute2015.ita.eng.sub.ita.eng.mircrew.multisub.idx 154 KB GODS OF EGYPT 2016. ita.eng.sub.ita.eng.avi 2.1 GB The.Killer.Inside.Me.2010.ita.eng.sub.ita .eng.iCV-MIRCrew.Kat.ITA.mp4 461.3 MB Information about the torrent Inside Out (2015).ita.eng.sub.ita.eng-MIRCrew. Seeders, leechers and torrent status is updated several times per day. Like all of us, Riley is guided by her emotions Joy, Fear, Anger, Disgust and Sadness. The emotions live in Headquarters, the control center inside Rileys mind, where they help advise her through everyday life.

recommended posts